Freebox Player (Revolution / V6)

  • État Nouveau
  • Type de tâche Évolution
  • Catégorie Lecteur multimédia
  • Assignée à Personne
  • Système d'exploitation
  • Sévérité Basse
  • Priorité Normale
  • Basée sur la version 1.0.4
  • Due pour la version Non décidé
  • Date d'échéance Non décidé
Concerne le projet: Freebox Player (Revolution / V6)
Ouverte par Damien Raude-Morvan (drazzib) - 06/08/2011

FS#7447 - Support du format Ogg/Theora

Bonjour,

Le codec vidéo Ogg Theora [1] ne semble pas supporté par le module Lecteur Multimedia de la Freebox Player v6.

Cas de test :
- Récupération d’un fichier Ogg Vorbis+Theora [2]
- Dépot d’un fichier ogv (Ogg container format) contenant un flux audio Ogg Vorbis et un flux vidéo Ogg Theora

dans l'espace "Vidéos" de la Freebox Server

- Utilisation de l’application “Mes Vidéos” depuis un téléviseur pour lire ce fichier

Détails sur le contenu du fichier OGV :
ffmpeg -i 704_FreedomBox_progress_report.ogv
ffmpeg version 0.8, Copyright © 2000-2011 the FFmpeg developers
[...]
[ogg @ 0x1e45c20] max_analyze_duration 5000000 reached at 5000000
Input #0, ogg, from ‘704_FreedomBox_progress_report.ogv’:

Duration: 00:45:21.00, start: 0.000000, bitrate: 1636 kb/s
  Stream #0.0: Data: skeleton
  Stream #0.1: Video: theora, yuv420p, 720x576, 25 fps, 25 tbr, 25 tbn, 25 tbc
  Stream #0.2: Audio: vorbis, 48000 Hz, stereo, s16, 128 kb/s
  Metadata:
    ENCODER         : ffmpeg2theora-0.24

Résultat obtenu :
- Lecture parfaite du flux audio Ogg Vorbis
- Ecran noir
- En mode debug : pas de codec vidéo affiché

Résultat attendu :
- Affichage de la vidéo et de l’audio :)

[1] http://www.theora.org/ [2] http://meetings-archive.debian.net/pub/debian-meetings/2011/debconf11/high/704_FreedomBox_progress_report.ogv

Cordialement,

Damien Raude-Morvan

Cette tache ne dépend pas d'autre tache

malouito (malouito)
mercredi 23 mai, 2012 21:16:42

La player ne prend pas en charge les pistes audio encodées en OGG Vorbis contenues dans les containers MKV, ce qui empêche complètement la lecture de la video en question. (en remuxant sans la piste Vorbis en question le fichier se joue sans problèmes)

malouito (malouito)
mercredi 23 mai, 2012 21:53:35

Vous pouvez ignorer le commentaire précédent, le problème est en fait que le player ne supporte pas d’avoir deux tracks audio encodées avec deux codecs différents alors que chaque video remuxée avec une seule des pistes audio (soit AC3, soit Vorbis dans mon cas) se lit très bien.

David Faure (dfaure)
dimanche 10 juillet, 2016 15:32:30

J'ai encodé de nombreuses vidéos avec ffmpeg2theora:

  Stream #0:1: Video: theora, yuv420p(bt470bg/bt470bg/bt709), 720x560 [SAR 1:1 DAR 9:7], 25 fps, 25 tbr, 25 tbn, 25 tbc
  Stream #0:2: Audio: vorbis, 48000 Hz, stereo, fltp, 80 kb/s

Ces fichiers .ogv se lisent sans problème sous Linux, mais sur la freebox, pas d'image, seulement du son :(

Merci d'ajouter le codec video théora sur une mise à jour prochaine de la freebox.

Neustradamus (Neustradamus_)
vendredi 17 avril, 2020 15:38:30

Du neuf à ce propos ?

Chargement...