Freebox Player Delta / One (V7)

  • Status Confirmé
  • Percent Complete
    0%
  • Task Type Anomalie
  • Category Télévision
  • Assigned To No-one
  • Operating System Tous
  • Severity Critical
  • Priority Very Low
  • Reported Version 1.2.3
  • Due in Version Undecided
  • Due Date Undecided
  • Votes 6
  • Private
Attached to Project: Freebox Player Delta / One (V7)
Opened by ericaix13 - 19/08/2022
Last edited by Thibaut Freebox - 20/09/2022

FS#36945 - lecteur vidéo et bandeau de navigation qui s'affiche sans cesse

Bonjour lors de la lecture de vidéos via le lecteur du devialet, le bandeau de navigation et d’information ne cesse de s’afficher….

Admin

Bonjour

Des fichiers vidéo perso ? Stocké sur un disque dur interne du Server ? Quel format de fichier ?

Cdt

Des fichiers videos stockées sur le disk raid 5 de la freebox
fichier mkv x265 1080p

Admin

Merci

C'est lié au cryptage des données pour les faire passer du Server au Player. On travaille dessus pour améliorer ses performances.

Cdt

Bonsoir
Idem pour des vidéos stockées sur un NAS externe.
Ça s'affiche toutes les 5 secondes pendant 3 secondes.

de mon coté pas de raid et cela s'affiche toute les 2 a 10 secondes tous le films 2h
fichier mkv x265 720p qu'il fasse 1g ou plusde 4go c'est pareil

Bemi7 commented on 02.09.2022 22:13

Bonjour,

Même souci de mon côté sur certains fichiers uniquement.
C’est identifie? Besoin de cas d’ano?

C’est évidemment très dérangeant quand on tente de regarder quelque chose.

Merci!

bonjour,
@Thibault Freebox
Non le probleme n'ait pas entre le serveur et le player, car meme si on branche en USB sur le devialet ca fait pareil.

et le format n'ait pas juste mkv X265 720p pour mon cas c'est en MKV X264 1080
A mon avis vous avez un probleme de codec MKV

Admin

Bonjour

@zaraki63 :

Quelle taille de fichier ? Je ne reproduis pas en USB x265 et x264 sur des fichiers tests de petite taille.

Cdt

Même soucis de mon côté avec un fichier (info MediaInfo)
General
Unique ID : 107083192290294094324115825415414217986 (0x508F790010B31E947ABF96255509FD02)
Complete name : C:\Users\xxxxxxxxx\Downloads\Westworld.S04E06.FRENCH.1080p.WEB.H264-Wawacity.red.mkv
Format : Matroska
Format version : Version 4
File size : 3.74 GiB
Duration : 55 min 48 s
Overall bit rate mode : Constant
Overall bit rate : 9 589 kb/s
Encoded date : UTC 2022-08-01 09:12:10
Writing application : mkvmerge v53.0.0 ('Fool's Gold') 64-bit
Writing library : libebml v1.4.1 + libmatroska v1.6.2

Video
ID : 1
Format : AVC
Format/Info : Advanced Video Codec
Format profile : High@L4 Format settings : CABAC / 4 Ref Frames
Format settings, CABAC : Yes
Format settings, Reference frames : 4 frames
Codec ID : V_MPEG4/ISO/AVC
Duration : 55 min 48 s
Bit rate mode : Constant
Bit rate : 8 947 kb/s
Nominal bit rate : 10 000 kb/s
Width : 1 920 pixels
Height : 1 080 pixels
Display aspect ratio : 16:9
Frame rate mode : Constant
Frame rate : 25.000 FPS
Color space : YUV
Chroma subsampling : 4:2:0
Bit depth : 8 bits
Scan type : Progressive
Bits/(Pixel*Frame) : 0.173
Stream size : 3.49 GiB (93%)
Default : Yes
Forced : No
Color range : Limited
Color primaries : BT.709
Transfer characteristics : BT.709
Matrix coefficients : BT.709

Audio
ID : 2
Format : E-AC-3
Format/Info : Enhanced AC-3
Commercial name : Dolby Digital Plus
Codec ID : A_EAC3
Duration : 55 min 48 s
Bit rate mode : Constant
Bit rate : 640 kb/s
Channel(s) : 6 channels
Channel layout : L R C LFE Ls Rs
Sampling rate : 48.0 kHz
Frame rate : 31.250 FPS (1536 SPF)
Compression mode : Lossy
Stream size : 256 MiB (7%)
Title : French
Language : French
Service kind : Complete Main
Default : Yes
Forced : Yes

Admin

@Nippocamp : sur une clé USB branchée sur le Player ?

PS : wawacity ? Je suppose que vous aviez acheté la saison 4 en DVD et qu'il s'agit d'une copie de sauvegarde ? ;-)

la taille est entre 700 et 900Mo

Je vois envoi un fichier de tests c'est inregardable tt les 2 à 10 secondes fichier de 785mo
https://www.transfernow.net/dl/20220906dcUDYvDf

@Thibaut Freebox –> non depuis fichier stocké le Server

PS : je pré-sauvegarde mes séries :D j'achète les saisons en Blu-ray une fois dispo

@Benoit prends ton fichier et met le sur une clef USB tu verras tu auras le meme probleme.
Ou prends le fichier video que j'ai mis en lien.

Pour moi le probleme n'ait pas lié au serveur DELTA mais au player dévialet qui intègre mal certain format

@Thibault freebox :

Avez-vous pu avancer avec le fichier vidéo mis à disposition ?

je demande car je vois le ticket en nouveau ce qui m'inquiète, pouvez-vous le pousser dans votre prochain SPRINT afin de le traiter ?

et la passer en Critique voir Bloqueur car dans certain cas ca rends la video inregardable et le passer en BUG car vu l'impact on ait plus sur un incident. :-)

Même constat chez moi avec différents fichiers stockés sur le Server

Salut tout le monde, idem chez moi depuis plusieurs mois, avec le lecteur intégré au player devialet, pour les fichiers en local depuis un pc avec freemi, et seulement sur des mkv, notamment H264.

Je viens de tester une vidéo faite avec mon Samsung S20FE 5G, donc un mp4 en H264 AAC, transférée sur le freebox delta server, ça ne buggue pas.

Merci d'avance pour la résolution de ce problème, qui n'existait pas avant 2022, de mémoire.

Bonjour,

Même problème pour moi sur plusieurs vidéos que j'ai téléchargé (un peu pénible quand on a des sous titres a lire :/)

@Thibaut freebox je peux fournir un fichier en question, c'est un épisode de série 1080p, rien de très lourd, et pour autant sur des fichiers en 4k ça me le fait pas forcément

J'utilise le disque dur original vendu avec la Delta, mais que j'avais du formaté (car j'ai du partir de chez Free plusieurs mois cause déménagement), et reformaté par le système Free lorsque j'ai remis le disque dur dans ma nouvelle Delta

C'est vraiment pas pratique en l'état, je suis obligé d'utiliser une autre box Android en parallèle pour les fichiers qui rencontre ce problèle

Merci

Bonsoir,

Pour ma part cela arrive lorsque je lis des vidéos depuis mon ordinateur (PC Win) via "FreeMiUpNp Media server 2.0.10" (oui je suis un ancien)

Je confirme que la lecture des sous-titres est, de fait, impossible.

La lecture depuis le LG Web Os de ma TV n'offre pas ce défaut et la qualité vidéo est franchement meilleure (de quoi je me plains, n'est ce pas ?)

Je suis relié en Rj45.

Par contre j'ai un fichier de 50 Go (oui oui) très récent qui se lit très bien sans temporisation.

A vous lire.

Bonsoir,

Même avec le Firmware 2.1.4 le problème n'est pas résolu, pire même à priori.

La lecture des sous titrages est rendu impossible.

Un correctif est il en développement ?

Cordialement.

Loading...

Available keyboard shortcuts

Tasklist

Task Details

Task Editing