Freebox Player (Revolution / V6)

  • État Close
  • Type de tâche Anomalie
  • Catégorie Lecteur multimédia
  • Assignée à Personne
  • Système d'exploitation Tous
  • Sévérité Moyenne
  • Priorité Normale
  • Basée sur la version 1.2.5
  • Due pour la version Non décidé
  • Date d'échéance Non décidé
  • Votes 0
  • Privée Non
Concerne le projet: Freebox Player (Revolution / V6)
Ouverte par nounours2904 (nounours2904) - 19/02/2013

FS#11904 - Plus possible de lire les fichiers MP4 uPNP

Bonsoir.

Depuis la mise à jour 1.2.4 (inclus 1.2.5), les fichiers MP4 (h264) ne sont plus lisibles via uPNP. Lorsque je sélectionne un fichier, la lecture commence et l’écran reste noir. Il n’y a pas de son non plus et la lecture ne se déroule pas. Bien sûr, ces fichiers étaient lisibles avant.

Cordialement

Close par  Freebox Robot (Freebox Robot)
mardi 19 mars, 2013 14:29:39
Raison de clôture :  Evolution intégrée
Commentaires supplémentaires de clôture :  Dans la 1.2.6

Cette tache ne dépend pas d'autre tache

fmt (fmt)
jeudi 21 février, 2013 19:47:53

Bonjour.
Je confirme ce bug: plus possible de lire les videos encodées en h264 sur le Player depuis la version 1.2.4 il me semble, mais clairement identifié sur la version 1.2.5.
Je pense que cela provient du fait que la durée de la vidéo n’est plus lu au chargement du fichier, puisqu’en bas à droite de l’écran (effectivement noir) on a: –:– / –:– là où normalement, le deuxième série de nombres est la durée.
J’espère que le correctif sera apporté rapidement car le format h264 est l’un des plus répandus.
Bien cordialement,
F.T.

fmt (fmt)
vendredi 22 février, 2013 12:16:47

Rebonjour,
Je pense finalement que l’encodage vidéo (h264) n’est pas en cause.
En effet je viens de réencoder la vidéo que j’avais initialement créée avec HandBrake (h264, AAC pour l’audio) en h264, MP3 pour l’audio en utilisant iFFMpeg, et la nouvelle vidéo est lisible sur le Player !
Je rappelle que le h264,AAC était lisible sur le Player avant le passage à la version 1.2.4.
F.T.

fmt (fmt)
samedi 23 février, 2013 16:17:54

Quelques précisions sur les CODECS.

Fichier PLUS lisible (codec audio AAC):

General
Complete name : /Volumes/Disque dur/Vidéos/Films enfants/Matilda.m4v
Format : MPEG-4
Format profile : Base Media / Version 2
Codec ID : mp42
File size : 812 MiB
Duration : 1h 27mn
Overall bit rate mode : Variable
Overall bit rate : 1 302 Kbps
Encoded date : UTC 2012-09-18 18:50:45
Tagged date : UTC 2012-09-18 19:08:31
Writing application : HandBrake 0.9.8 2012071800

Video
ID : 1
Format : AVC
Format/Info : Advanced Video Codec
Format profile : Main@L3.0
Format settings, CABAC : Yes
Format settings, ReFrames : 4 frames
Codec ID : avc1
Codec ID/Info : Advanced Video Coding
Duration : 1h 27mn
Bit rate mode : Variable
Bit rate : 1 133 Kbps
Width : 704 pixels
Height : 428 pixels
Display aspect ratio : 2.35:1
Frame rate mode : Constant
Frame rate : 25.000 fps
Color space : YUV
Chroma subsampling : 4:2:0
Bit depth : 8 bits
Scan type : Progressive
Bits/(Pixel*Frame) : 0.150
Stream size : 706 MiB (87%)
Writing library : x264 core 120
Encoding settings : cabac=1 / ref=1 / deblock=1:0:0 / analyse=0×1:0×111 / me=hex / subme=2 / psy=1 / psy_rd=1.00:0.00 / mixed_ref=0 / me_range=16 / chroma_me=1 / trellis=0 / 8x8dct=0 / cqm=0 / deadzone=21,11 / fast_pskip=1 / chroma_qp_offset=0 / threads=12 / sliced_threads=0 / nr=0 / decimate=1 / interlaced=0 / bluray_compat=0 / constrained_intra=0 / bframes=3 / b_pyramid=2 / b_adapt=1 / b_bias=0 / direct=1 / weightb=1 / open_gop=0 / weightp=1 / keyint=250 / keyint_min=25 / scenecut=40 / intra_refresh=0 / rc_lookahead=10 / rc=crf / mbtree=1 / crf=20.0 / qcomp=0.60 / qpmin=3 / qpmax=69 / qpstep=4 / ip_ratio=1.40 / aq=1:1.00
Encoded date : UTC 2012-09-18 18:50:45
Tagged date : UTC 2012-09-18 19:08:31
Color primaries : BT.601 NTSC
Transfer characteristics : BT.709
Matrix coefficients : BT.601

Audio
ID : 2
Format : AAC
Format/Info : Advanced Audio Codec
Format profile : LC
Codec ID : 40
Duration : 1h 27mn
Bit rate mode : Variable
Bit rate : 165 Kbps
Maximum bit rate : 265 Kbps
Channel(s) : 2 channels
Channel positions : Front: L R
Sampling rate : 48.0 KHz
Compression mode : Lossy
Delay relative to video : 80ms
Stream size : 103 MiB (13%)
Language : French
Encoded date : UTC 2012-09-18 18:50:45
Tagged date : UTC 2012-09-18 19:08:30

Text
ID : 3
Format : Apple text
Codec ID : text
Duration : 1h 27mn
Bit rate mode : Constant
Bit rate : 1 bps
Stream size : 456 Bytes (0%)
Encoded date : UTC 2012-09-18 18:50:45

Fichier avec flux AUDIO changé en MP3 (en utilisant iFFMpeg), et qui est de nouveau LISIBLE:

General
Complete name : /Volumes/Disque dur/Vidéos/Films enfants/Matilda.mp4
Format : MPEG-4
Format profile : Base Media
Codec ID : isom
File size : 790 MiB
Duration : 1h 27mn
Overall bit rate : 1 267 Kbps
Writing application : Lavf54.59.106

Video
ID : 1
Format : AVC
Format/Info : Advanced Video Codec
Format profile : Main@L3.0
Format settings, CABAC : Yes
Format settings, ReFrames : 4 frames
Codec ID : avc1
Codec ID/Info : Advanced Video Coding
Duration : 1h 27mn
Bit rate : 1 133 Kbps
Width : 704 pixels
Height : 428 pixels
Display aspect ratio : 2.35:1
Frame rate mode : Constant
Frame rate : 25.000 fps
Color space : YUV
Chroma subsampling : 4:2:0
Bit depth : 8 bits
Scan type : Progressive
Bits/(Pixel*Frame) : 0.150
Stream size : 706 MiB (89%)
Writing library : x264 core 120
Encoding settings : cabac=1 / ref=1 / deblock=1:0:0 / analyse=0×1:0×111 / me=hex / subme=2 / psy=1 / psy_rd=1.00:0.00 / mixed_ref=0 / me_range=16 / chroma_me=1 / trellis=0 / 8x8dct=0 / cqm=0 / deadzone=21,11 / fast_pskip=1 / chroma_qp_offset=0 / threads=12 / sliced_threads=0 / nr=0 / decimate=1 / interlaced=0 / bluray_compat=0 / constrained_intra=0 / bframes=3 / b_pyramid=2 / b_adapt=1 / b_bias=0 / direct=1 / weightb=1 / open_gop=0 / weightp=1 / keyint=250 / keyint_min=25 / scenecut=40 / intra_refresh=0 / rc_lookahead=10 / rc=crf / mbtree=1 / crf=20.0 / qcomp=0.60 / qpmin=3 / qpmax=69 / qpstep=4 / ip_ratio=1.40 / aq=1:1.00
Color primaries : BT.601 NTSC
Transfer characteristics : BT.709
Matrix coefficients : BT.601

Audio
ID : 2
Format : MPEG Audio
Format version : Version 1
Format profile : Layer 3
Mode : Joint stereo
Mode extension : MS Stereo
Codec ID : 6B
Duration : 1h 27mn
Duration_LastFrame : -4ms
Bit rate mode : Constant
Bit rate : 128 Kbps
Channel(s) : 2 channels
Sampling rate : 48.0 KHz
Compression mode : Lossy
Delay relative to video : 80ms
Stream size : 79.8 MiB (10%)
Language : French

Menu
00:55:54.560 : Chapter 14
01:15:19.440 : Chapter 18


F.T.

Neustradamus (Neustradamus_)
vendredi 17 avril, 2020 20:14:55

Est-ce opérationnel de nos jours ?

Chargement...