Freebox Server (Ultra V9/ Pop V8/ Delta V7 / Revolution V6 / Mini 4K)

  • Status Nouveau
  • Percent Complete
    0%
  • Task Type Anomalie
  • Category Freebox OS
  • Assigned To No-one
  • Operating System Freebox Server V7 (Delta)
  • Severity Medium
  • Priority Very Low
  • Reported Version 4.1.8
  • Due in Version Undecided
  • Due Date Undecided
  • Votes 1
  • Private

FS#30792 - lecture de fichiers mkv est déplorable via serveur ou player

Bonjour,
En connexion ethernet :
La lecture de fichiers mkv est déplorable via serveur ou player, en DD externe ou interne (saccadés toutes les 1 ou 2 secondes)
Ces mêmes fichiers sont parfaitement fluides si le DD est branché sur un autre multimédia ou sur mon PC, ou directement sur la TV.
Bon courage,

1000sabords.

Admin

Bonjour

Possible de partager l'un de ces fichiers et de préciser les détails de ceux utilisés ? (taille, bitrate, etc...)

Cdt

Merci de répondre.
Oui c'est possible.
Les fichiers sont de taille variable (2 à 3 Go chacun en moyenne)
Ce sont des mkv issus de .ts enregistrés avec cette même box en TNT (1920x1080) ou ADSL (1440x1080) parfaitement fluides à l'origine.
Fichiers ts fluides sont passés par ts-doctor pour les alléger des audios superflus et autres joyeusetés inutiles (données télétext etc...)
Puis passés par Videoredo pour supprimer les pubs, changer le EAC-3 (s'il y a) en AAC et changer le container ts en mkv.
Il n'y a aucun ré-encodage, aucune compression. Les mkv sont parfaitement fluides sur tout autre multimédia que la box.
Les ts sont fluides mais convertis en mkv ils saccadent : l'image s'arrête constamment 1/10ème de sec environ pour repartir. L'audio n'est pas impacté.
ex : un objet traverse l'écran de droite à gauche, l'image stoppe brièvement puis repart plusieurs fois, l'objet a fait autant de bonds à l'écran alors qu'il aurait dû traverser de façon totalement fluide. (difficile d'expliquer !)
Cela se passe aussi avec des fichiers issus du web.
Quelques fois si j'effectue un saut de 10 ou 30 seconde en avant ou en arrière la vidéo se cale correctement et devient fluide

Voici le détail d'un fichier :

Général
Identifiant unique : 315539830380620361300860485654881261341 (0xED62C2C3A330008B4746A3D7C654571D)
Nom complet : G:\Doc\Louvre\Le Louvre, un musée pharaonique.mkv
Format : Matroska
Version du format : Version 4
Taille du fichier : 1,69 Gio
Durée : 58 min 21s
Débit global moyen : 4 146 kb/s
Application utilisée : VideoReDo (Lavf57.71.100)
Bibliothèque utilisée : VideoReDo (Lavf57.71.100)
ErrorDetectionType : Per level 1

Vidéo
ID : 1
Format : AVC
Format/Info : Advanced Video Codec
Profil du format : High@L4
Paramètres du format : CABAC / 4 Ref Frames
Paramètres du format, CABAC : Oui
Paramètres du format, RefFrames : 4 images
Identifiant du codec : V_MPEG4/ISO/AVC
Durée : 58 min 20s
Largeur : 1 440 pixels
Hauteur : 1 080 pixels
Format à l'écran : 16/9
Type d'images/s : Constant
Images par seconde : 25,000 Im/s
Norme : Component
Espace de couleurs : YUV
Sous-échantillonnage de la chrominance : 4:2:0
Profondeur des couleurs : 8 bits
Type de balayage : Entrelacé
Ordre de balayage, mode d'enregistrement : Trames séparées
Ordre de balayage : Ligne du haut d'abord
Default : Non
Forced : Non
Gamme de couleurs : Limited
Coordonnées de chromaticité : BT.709
Caractéristiques du transfert : BT.709
Coefficients de la matrice : BT.709

Audio
ID : 2
Format : AAC LC
Format/Info : Advanced Audio Codec Low Complexity
Identifiant du codec : A_AAC-2
Durée : 58 min 20s
Canaux : 2 canaux
Channel layout : L R
Echantillonnage : 48,0 kHz
Images par seconde : 46,875 Im/s (1024 SPF)
Mode de compression : Avec perte
Default : Oui
Forced : Non

Menu
00:00:00.000 : :Chapter 1

Et voici un lien vers ma box sur un autre fichier :
http://bigouf.freeboxos.fr:50002/share/VYgCUii179CRE74Z/La%20l%C3%A9gende%20de%20Versailles%20(Louis%20XV,%20le%20soleil%20noir).mkv

Vous avez téléchargé le fichier partagé ? Je peux supprimer le lien ?

Admin

Oui je l'ai, merci !

Bonjour,
Des nouvelles sur la lecture saccadée des mkv ?
De mon côté, après les màj successives des 2 box j'ai constaté une nette amélioration.

Même problème avec des vidéos de trop grandes qualités :
la vidéo se lance correctement et après quelques minutes (ou dès l'apparition d'effets spéciaux à l'écran) l'image saccade sévèrement au point de planter l'image et de continuer à faire fonctionner le son.


Détail d'une vidéo de "trop grande qualité" :
Video
ID : 1
Format : AVC
Format/Info : Advanced Video Codec
Format profile : High@L5.1
Format settings : CABAC / 5 Ref Frames
Format settings, CABAC : Yes
Format settings, Reference frames : 5 frames
Codec ID : V_MPEG4/ISO/AVC
Duration : 2 h 56 min
Bit rate : 39.9 Mb/s
Width : 3 840 pixels
Height : 1 608 pixels
Display aspect ratio : 2.40:1
Frame rate mode : Constant
Frame rate : 23.976 (24000/1001) FPS
Color space : YUV
Chroma subsampling : 4:2:0
Bit depth : 8 bits
Scan type : Progressive
Bits/(Pixel*Frame) : 0.269
Stream size : 49.0 GiB (84%)
Writing library : x264 core 157 r2935 545de2f
Encoding settings : cabac=1 / ref=5 / deblock=1:-1:-1 / analyse=0x3:0x113 / me=umh / subme=10 / psy=1 / psy_rd=1.00:0.15 / mixed_ref=1 / me_range=48 / chroma_me=1 / trellis=2 / 8x8dct=1 / cqm=0 / deadzone=21,11 / fast_pskip=1 / chroma_qp_offset=-3 / threads=48 / lookahead_threads=4 / sliced_threads=0 / nr=0 / decimate=0 / interlaced=0 / bluray_compat=0 / constrained_intra=0 / bframes=3 / b_pyramid=2 / b_adapt=2 / b_bias=0 / direct=3 / weightb=1 / open_gop=0 / weightp=2 / keyint=250 / keyint_min=23 / scenecut=40 / intra_refresh=0 / rc_lookahead=50 / rc=crf / mbtree=1 / crf=16.0 / qcomp=0.60 / qpmin=0 / qpmax=69 / qpstep=4 / ip_ratio=1.40 / aq=1:1.00
Default : Yes
Forced : No

Audio #1
ID : 2
Format : MLP FBA 16-ch
Format/Info : Meridian Lossless Packing FBA with 16-channel presentation
Commercial name : Dolby TrueHD with Dolby Atmos
Codec ID : A_TRUEHD
Duration : 2 h 56 min
Bit rate mode : Variable
Bit rate : 3 028 kb/s
Maximum bit rate : 5 271 kb/s
Channel(s) : 8 channels
Channel layout : L R C LFE Ls Rs Lb Rb
Sampling rate : 48.0 kHz
Frame rate : 1 200.000 FPS (40 SPF)
Compression mode : Lossless
Stream size : 3.73 GiB (6%)
Title : TrueHD Atmos 7.1
Language : English
Default : Yes
Forced : No
Number of dynamic objects : 11
Bed channel count : 1 channel
Bed channel configuration : LFE

Audio #2
ID : 3
Format : DTS XLL
Format/Info : Digital Theater Systems
Commercial name : DTS-HD Master Audio
Codec ID : A_DTS
Duration : 2 h 56 min
Bit rate mode : Variable
Bit rate : 3 730 kb/s
Channel(s) : 8 channels
Channel layout : C L R LFE Lb Rb Lss Rss
Sampling rate : 48.0 kHz
Frame rate : 93.750 FPS (512 SPF)
Bit depth : 24 bits
Compression mode : Lossless
Stream size : 4.59 GiB (8%)
Title : DTS-HD MA 7.1
Language : English
Default : No
Forced : No

Audio #3
ID : 4
Format : AC-3
Format/Info : Audio Coding 3
Commercial name : Dolby Digital
Format settings : Dolby Surround EX
Codec ID : A_AC3
Duration : 2 h 56 min
Bit rate mode : Constant
Bit rate : 448 kb/s
Channel(s) : 6 channels
Channel layout : L R C LFE Ls Rs
Sampling rate : 48.0 kHz
Frame rate : 31.250 FPS (1536 SPF)
Compression mode : Lossy
Stream size : 565 MiB (1%)
Title : DD 5.1
Language : English
Service kind : Complete Main
Default : No
Forced : No

Taille : 58.34 GB


La même vidéo au même emplacement est lue sans problème par VLC sur un PC.
Comme si la Delta n'était pas suffisamment puissante pour gérer l'image.

— Exemple d'une vidéo lue sans problème depuis le player Delta :
Video
ID : 1
Format : AVC
Format/Info : Advanced Video Codec
Format profile : High@L4.1
Format settings : CABAC / 4 Ref Frames
Format settings, CABAC : Yes
Format settings, Reference frames : 4 frames
Codec ID : V_MPEG4/ISO/AVC
Duration : 1 h 27 min
Bit rate : 5 289 kb/s
Width : 1 920 pixels
Height : 1 080 pixels
Display aspect ratio : 16:9
Frame rate mode : Constant
Frame rate : 23.976 (24000/1001) FPS
Color space : YUV
Chroma subsampling : 4:2:0
Bit depth : 8 bits
Scan type : Progressive
Bits/(Pixel*Frame) : 0.106
Stream size : 3.22 GiB (64%)
Writing library : x264 core 164 r3065 ae03d92
Encoding settings : cabac=1 / ref=4 / deblock=1:1:1 / analyse=0x3:0x133 / me=umh / subme=9 / psy=1 / psy_rd=0.40:0.00 / mixed_ref=1 / me_range=16 / chroma_me=1 / trellis=2 / 8x8dct=1 / cqm=0 / deadzone=21,11 / fast_pskip=1 / chroma_qp_offset=-2 / threads=34 / lookahead_threads=3 / sliced_threads=0 / nr=0 / decimate=1 / interlaced=0 / bluray_compat=0 / constrained_intra=0 / bframes=5 / b_pyramid=2 / b_adapt=2 / b_bias=0 / direct=3 / weightb=1 / open_gop=0 / weightp=2 / keyint=250 / keyint_min=23 / scenecut=40 / intra_refresh=0 / rc_lookahead=60 / rc=crf / mbtree=1 / crf=15.5 / qcomp=0.60 / qpmin=0 / qpmax=69 / qpstep=4 / ip_ratio=1.40 / aq=1:0.60
Default : Yes
Forced : No

Audio
ID : 2
Format : DTS XLL
Format/Info : Digital Theater Systems
Commercial name : DTS-HD Master Audio
Codec ID : A_DTS
Duration : 1 h 27 min
Bit rate mode : Variable
Bit rate : 2 934 kb/s
Channel(s) : 6 channels
Channel layout : C L R Ls Rs LFE
Sampling rate : 48.0 kHz
Frame rate : 93.750 FPS (512 SPF)
Bit depth : 24 bits
Compression mode : Lossless
Stream size : 1.79 GiB (35%)
Language : English
Default : Yes
Forced : No

Taille : 5.03 GB

Admin

Bonjour

Pour info, on bosse sur le cryptage entre Server et Player qui, justement, créé potentiellement ce problème sur certains codecs/bitrates/Formats.

Cdt

Merci, c'est noté :)

Super, merci pour la nouvelle !
Et bon courage pour le debug ;)

Hello les devs,
J'imagine que la dernière update (4.6.5) ne corrige pas encore ce problème ?

Loading...

Available keyboard shortcuts

Tasklist

Task Details

Task Editing