All Projects

ID Project Opened Task Type Category Status Summary
18005Freebox Player (Revolution / V6)23/07/2015ÉvolutionMenu principalNouveauNouveau service de cloud: owncloud Task Description

Bonjour,

Et tout d’abord merci pour cette mise à jour majeure et spécialement pour l’ajout des services de cloud (googledrive, onedrive, dropbox).
La question qui vient tout de suite après, c’est “Quand allez-vous ajouter une entrée pour un serveur owncloud ?”.

Merci ;)

Fab.

 11313 Freebox Player (Revolution / V6)28/10/2012ÉvolutionAutre / Non triéClosed Avoir des favoris Radio  Task Description

Bonjour,

Créer son propre bouquet avec ses chaînes favorites est très appréciable. Il va de même pour les radios. Je suis toujours en train de naviguer dans environ 2000 radios pour zapper entre mes 5-6 radios favorites.

Qu’en pensez-vous vous autres ?

a+

f.

8435Freebox Player (Revolution / V6)18/10/2011ÉvolutionLecteur AudioNouveauPouvoir accélérer/décélérer un morceau de musique et u... Task Description

Avec les flêches gauche-droite de la télécommande, je peux aller en avant ou revenir en arrière pour un morceau de musique: ok

Evolution: avec les flêches haute-basse, on pourrait accélérer/décélérer la vitesse de lecture du morceau. Pour apprendre des morceaux de musique par exemple en ralentissant le morceau.

Cette idée pourrait être également étendue aux vidéo. La plupart des lecteurs actuels permettent de faire ceci.

 6710 Freebox Player (Revolution / V6)19/04/2011ÉvolutionTélévisionClosed Quand on allume le player, on va sur la dernière chaine ... Task Description

Bonjour,

Un truc qui serait pas mal je pense, à la manière d’une téloche normale: quand on allume le player avec la télécommande, on va directement sur la dernière chaine qu’on visionnait lorsqu’on a stoppé. (d’ailleurs, sur la V5, c’était pas le fonctionement normal ?);

cdlt,

f.

 6572 Freebox Player (Revolution / V6)04/04/2011AnomalieLecteur multimédiaClosed Fichier *.avi illisible avec la Freebox  Task Description

c’est un avi créé avec l’appareil photo BENQ DC C640 Digital Camera 6MP

fabricer@FR-PORT:/tmp$ mediainfo IMG_0861.AVI
General
Complete name : IMG_0861.AVI
Format : AVI
Format/Info : Audio Video Interleave
File size : 62.4 MiB
Duration : 55s 200ms
Overall bit rate : 9 488 Kbps
Mastered date : Thu Mar 03 15:39:26 2011
Writing application : ZORAN COACH I62

Video
ID : 0
Format : JPEG Codec ID : MJPG
Duration : 55s 200ms
Bit rate : 9 365 Kbps
Width : 640 pixels
Height : 480 pixels
Display aspect ratio : 4:3
Frame rate : 30.000 fps
Color space : YUV
Chroma subsampling : 4:2:2
Bit depth : 8 bits
Scan type : Progressive
Compression mode : Lossy
Bits/(Pixel*Frame) : 1.016
Stream size : 61.6 MiB (99%)

Audio
ID : 1
Format : ADPCM
Format profile : U-Law
Codec ID : 7
Codec ID/Hint : CCITT
Duration : 55s 198ms
Bit rate mode : Constant
Bit rate : 112 Kbps
Channel(s) : 1 channel
Sampling rate : 14.0 KHz
Bit depth : 8 bits
Stream size : 755 KiB (1%)
Interleave, duration : 33 ms (1.00 video frame)

Je peux fournir le fichier avi si besoin.

regards,

f.

6495Freebox Player (Revolution / V6)30/03/2011ÉvolutionTélévisionNouveauAgrandir la fenêtre "info sur l'émission en cours" Task Description

bonjour,

y a t-il le moyen d’agrandir la taille de la fenêtre (et donc du texte) qui indique le résumé des émissions ?

Je suis situé à 3 mètres de la TV et c’est illisible.

merci.

 6481 Freebox Player (Revolution / V6)29/03/2011AnomalieLecteur Blu-Ray/DVDClosed impossible de lire un dvd avec la péritel  Task Description

j’ai migré vers la V6 pour remplacer mon lecteur DVD/CD/DivX. Comment faire pour rétablir la lecture des DVD (je ne parle pas des disques blueray) via la péritel ? Je souhaite conserver ma tv analogique.

merci.

Showing tasks 1 - 7 of 7 Page 1 of 1

Available keyboard shortcuts

Tasklist

Task Details

Task Editing